HÖRBÜCHER | Macon Blair | Download
MejorTorrent
Inicio   -   Principal   -   Ayuda   -   Últimos Torrents

Torrents
Documentales 115
Juegos 712
Musica 1129
Peliculas 2285
Peliculas HD 1451
Series 10313
  Episodios17292
Series HD 9268
Variados 238

Información
Esta web no contiene ningún tipo de fichero almacenado.

Todos los archivos se comparten mediante el BitTorrent, un programa P2P de intercambio entre usuarios.



Beyonce
Descarga la última versión de uTorrent y baja a la máxima velocidad:

Beyonce

Descargar Beyonce Torrent


separador Género:  Variados

Total Descargas:  637



separador Torrent:      
        Tamaño:  3,17 GB

separador

Descripción:

General

Format : MPEG-4

Format profile : Base Media

File size : 3.17 GB

Duration : 1h 5mn

Overall bit rate : 6 962 Kbps

Writing application : Lavf57.25.100

Video

ID : 1

Format : AVC

Format/Info : Advanced Video Codec

Format profile : [email protected]

Format settings, CABAC : Yes

Format settings, ReFrames : 8 frames

Codec ID : avc1

Codec ID/Info : Advanced Video Coding

Duration : 1h 5mn

Bit rate : 6 637 Kbps

Width : 1 920 pixels

Height : 1 080 pixels

Display aspect ratio : 16:9

Frame rate mode : Constant

Frame rate : 23.976 (24000/1001) fps

Bit depth : 8 bits

Scan type : Progressive

Bits/(Pixel*Frame) : 0.133

Stream size : 3.03 GiB (95%)

Writing library : x264 core 148

Audio

ID : 2

Format : AAC

Format/Info : Advanced Audio Codec

Format profile : LC

Codec ID : 40

Duration : 1h 5mn

Duration_LastFrame : 36ms

Bit rate mode : Constant

Bit rate : 320 Kbps

Channel(s) : 2 channels

Channel positions : Front: L R

Sampling rate : 48.0 KHz

Frame rate : 46.875 fps (1024 spf)

Compression mode : Lossy

Stream size : 150 MiB (5%)

Language : English

Default : Yes

Alternate group : 1



Posts Relacionados




Volver al índice de Variados









21:10:38
computer


DMCA.com Protection Status